<?xml version="1.0" standalone="no"?>
<!DOCTYPE svg PUBLIC "-//W3C//DTD SVG 1.1//EN" "http://www.w3.org/Graphics/SVG/1.1/DTD/svg11.dtd" >
<svg xmlns="http://www.w3.org/2000/svg">
<metadata>
<json>
<![CDATA[
{
	"fontFamily": "icomoon",
	"description": "Font generated by IcoMoon.",
	"majorVersion": 1,
	"minorVersion": 0,
	"version": "Version 1.0",
	"fontId": "icomoon",
	"psName": "icomoon",
	"subFamily": "Regular",
	"fullName": "icomoon"
}
]]>
</json>
</metadata>
<defs>
<font id="icomoon" horiz-adv-x="1024">
<font-face units-per-em="1024" ascent="960" descent="-64" />
<missing-glyph horiz-adv-x="1024" />
<glyph unicode="&#x20;" horiz-adv-x="512" d="" />
<glyph unicode="&#xe000;" glyph-name="uniE000" data-tags="uniE000" horiz-adv-x="500" d="M15.36 243.2l235.52 409.6 235.52-409.6h-471.040z" />
<glyph unicode="&#xe001;" glyph-name="uniE001" data-tags="uniE001" horiz-adv-x="440" d="M15.36 683.52l409.6-235.52-409.6-235.52v471.040z" />
<glyph unicode="&#xe002;" glyph-name="uniE002" data-tags="uniE002" horiz-adv-x="500" d="M486.4 652.8l-235.52-409.6-235.52 409.6h471.040z" />
<glyph unicode="&#xe003;" glyph-name="uniE003" data-tags="uniE003" horiz-adv-x="440" d="M424.96 683.52v-471.040l-409.6 235.52z" />
<glyph unicode="&#xe004;" glyph-name="uniE004" data-tags="uniE004" horiz-adv-x="846" d="M0.512 574.464q4.608 13.824 27.136 17.92l257.024 35.84 113.664 233.472q10.24 20.48 25.088 20.48t25.088-20.48l115.712-233.472 254.976-35.84q23.552-4.096 28.16-17.92t-11.776-30.208l-185.344-181.248 43.008-253.952q3.072-17.408-2.56-26.624t-16.896-9.216q-7.168 0-20.48 5.12l-229.376 120.832-228.352-120.832q-13.312-5.12-20.48-5.12-12.288 0-17.92 9.216t-2.56 26.624l44.032 253.952-185.344 181.248q-17.408 16.384-12.8 30.208zM146.432 526.848l107.52-105.472 31.744-28.672-7.168-41.984-26.624-150.528 134.144 71.68 37.888 19.456 37.888-19.456 133.12-71.68-24.576 150.528-8.192 41.984 30.72 28.672 108.544 105.472-149.504 21.504-41.984 7.168-19.456 37.888-66.56 135.168-67.584-135.168-17.408-37.888-43.008-7.168z" />
<glyph unicode="&#xe005;" glyph-name="uniE005" data-tags="uniE005" horiz-adv-x="968" d="M0 114.176v142.336q0 17.408 11.776 28.672t29.184 11.264h156.672q15.36 0 27.648-11.264t12.288-28.672v-142.336q0-17.408-12.288-29.184t-27.648-11.776h-156.672q-17.408 0-29.184 11.776t-11.776 29.184zM0 418.304v118.784q0 17.408 11.776 28.672t29.184 11.264h156.672q15.36 0 27.648-11.264t12.288-28.672v-118.784q0-17.408-12.288-29.184t-27.648-11.776h-156.672q-17.408 0-29.184 11.776t-11.776 29.184zM0 698.88v143.36q0 16.384 11.776 28.16t29.184 11.776h156.672q15.36 0 27.648-11.776t12.288-28.16v-143.36q0-17.408-12.288-29.184t-27.648-11.776h-156.672q-17.408 0-29.184 11.776t-11.776 29.184zM318.464 114.176v142.336q0 17.408 11.776 28.672t29.184 11.264h570.368q16.384 0 28.16-11.264t11.776-28.672v-142.336q0-17.408-11.776-29.184t-28.16-11.776h-570.368q-17.408 0-29.184 11.776t-11.776 29.184zM318.464 418.304v118.784q0 17.408 11.776 28.672t29.184 11.264h570.368q16.384 0 28.16-11.264t11.776-28.672v-118.784q0-17.408-11.776-29.184t-28.16-11.776h-570.368q-17.408 0-29.184 11.776t-11.776 29.184zM318.464 698.88v143.36q0 16.384 11.776 28.16t29.184 11.776h570.368q16.384 0 28.16-11.776t11.776-28.16v-143.36q0-17.408-11.776-29.184t-28.16-11.776h-570.368q-17.408 0-29.184 11.776t-11.776 29.184z" />
<glyph unicode="&#xe006;" glyph-name="uniE006" data-tags="uniE006" horiz-adv-x="910" d="M823.296 745.984q71.68-66.56 71.68-159.744t-71.68-159.744l-367.616-337.92-367.616 337.92q-71.68 66.56-71.68 159.744t71.68 159.744q64.512 59.392 154.624 59.392t154.624-59.392l58.368-53.248 58.368 53.248q64.512 59.392 154.624 59.392t154.624-59.392z" />
<glyph unicode="&#xe007;" glyph-name="uniE007" data-tags="uniE007" horiz-adv-x="968" d="M1.024 301.568l36.864 155.648q2.048 8.192 2.048 18.944t-2.048 19.968l-36.864 154.624q-2.048 9.216 2.048 14.848t13.312 5.632h48.128q9.216 0 18.944-4.608t14.848-10.752l91.136-118.784q48.128 9.216 99.84 14.848t100.864 5.632h13.312l-66.56 305.152q-2.048 8.192 3.072 13.824t13.312 5.632h69.632q8.192 0 16.896-5.12t12.8-12.288l177.152-307.2h168.96q31.744 0 62.976-7.168t55.296-18.432 38.912-25.6 13.824-29.696q1.024-15.36-13.824-29.696t-38.912-25.6-55.296-18.432-62.976-7.168h-169.984l-176.128-305.152q-4.096-7.168-12.8-12.288t-16.896-5.12h-69.632q-8.192 0-13.312 5.632t-3.072 13.824l66.56 303.104h-13.312q-49.152 0-100.864 6.144t-99.84 14.336l-91.136-118.784q-13.312-15.36-33.792-15.36h-48.128q-9.216 0-13.312 5.632t-2.048 13.824z" />
<glyph unicode="&#xe008;" glyph-name="uniE008" data-tags="uniE008" horiz-adv-x="950" d="M360.448 100.864l-342.016 339.968 161.792 163.84 180.224-178.176 409.6 410.624 162.816-163.84z" />
<glyph unicode="&#xe009;" glyph-name="uniE009" data-tags="uniE009" horiz-adv-x="806" d="M0 174.592q0 20.48 15.36 35.84l267.264 268.288-267.264 263.168q-15.36 15.36-15.36 35.84t15.36 34.816l52.224 53.248q15.36 15.36 35.84 15.36t35.84-15.36l265.216-265.216 265.216 265.216q14.336 15.36 34.816 15.36t35.84-15.36l53.248-53.248q14.336-14.336 14.336-34.816t-14.336-35.84l-267.264-268.288 267.264-263.168q14.336-15.36 14.336-35.328t-14.336-35.328l-53.248-53.248q-15.36-15.36-35.84-15.36t-34.816 15.36l-265.216 266.24-266.24-266.24q-15.36-15.36-35.328-15.36t-35.328 15.36l-52.224 52.224q-15.36 15.36-15.36 35.84z" />
<glyph unicode="&#xe00a;" glyph-name="uniE00A" data-tags="uniE00A" horiz-adv-x="806" d="M0 478.72q0 77.824 29.696 152.064t89.088 133.632 133.632 88.576 152.064 29.184 152.064-29.184 133.632-88.576 88.576-133.632 29.184-152.064-29.184-152.064-88.576-133.632-133.632-89.088-152.064-29.696-152.064 29.696-133.632 89.088-89.088 133.632-29.696 152.064zM199.68 332.288l59.392-58.368q5.12-5.12 11.776-5.12t11.776 5.12l122.88 122.88 110.592-111.616q5.12-6.144 11.776-6.144t11.776 6.144l57.344 56.32q12.288 12.288 0 23.552l-111.616 111.616 123.904 123.904q11.264 12.288 0 23.552l-59.392 59.392q-12.288 12.288-23.552 0l-122.88-123.904-112.64 111.616q-11.264 12.288-23.552 0l-56.32-56.32q-5.12-6.144-5.12-12.288t5.12-12.288l111.616-110.592-122.88-123.904q-11.264-11.264 0-23.552z" />
<glyph unicode="&#xe00b;" glyph-name="uniE00B" data-tags="uniE00B" horiz-adv-x="806" d="M0 477.696q0 83.968 31.744 157.184t86.528 128.512 128.512 87.040 157.696 31.744 157.184-31.744 128-87.040 86.528-128.512 31.744-157.184-31.744-157.184-86.528-128.512-128-87.040-157.184-31.744-157.696 31.744-128.512 87.040-86.528 128.512-31.744 157.184zM171.008 437.76q0-7.168 5.12-12.288t11.264-5.12h433.152q7.168 0 11.776 5.12t4.608 12.288v79.872q0 6.144-4.608 11.264t-11.776 5.12h-433.152q-6.144 0-11.264-5.12t-5.12-11.264v-79.872z" />
<glyph unicode="&#xe00c;" glyph-name="uniE00C" data-tags="uniE00C" horiz-adv-x="1034" d="M774.144 192v164.864h-758.784v182.272h758.784v164.864l244.736-256z" />
<glyph unicode="&#xe00d;" glyph-name="uniE00D" data-tags="uniE00D" horiz-adv-x="992" d="M434.176 867.84q169.984 0 291.84-119.296t125.952-290.304h125.952l-188.416-209.92-188.416 209.92h146.432q-4.096 126.976-95.232 215.552t-218.112 88.576q-130.048 0-222.208-92.16t-92.16-222.208 92.16-222.72 222.208-92.672q100.352 0 185.344 61.44l71.68-76.8q-113.664-89.088-257.024-89.088-173.056 0-295.936 122.88t-122.88 296.96 122.88 296.96 295.936 122.88z" />
<glyph unicode="&#xe00e;" glyph-name="uniE00E" data-tags="uniE00E" horiz-adv-x="920" d="M503.808 285.184l65.536 65.536-148.48 148.48 148.48 148.48-65.536 65.536-214.016-214.016zM921.6 499.2q0-124.928-61.952-230.912t-167.936-167.936-230.912-61.952-230.912 61.952-167.936 167.936-61.952 230.912 61.952 230.912 167.936 167.936 230.912 61.952 230.912-61.952 167.936-167.936 61.952-230.912z" />
<glyph unicode="&#xe00f;" glyph-name="uniE00F" data-tags="uniE00F" horiz-adv-x="920" d="M417.792 285.184l214.016 214.016-214.016 214.016-65.536-65.536 148.48-148.48-148.48-148.48zM921.6 499.2q0-124.928-61.952-230.912t-167.936-167.936-230.912-61.952-230.912 61.952-167.936 167.936-61.952 230.912 61.952 230.912 167.936 167.936 230.912 61.952 230.912-61.952 167.936-167.936 61.952-230.912z" />
<glyph unicode="&#xe010;" glyph-name="uniE010" data-tags="uniE010" horiz-adv-x="984" d="M491.52 736.768q-80.896 0-122.368-42.496t-41.472-123.392h133.12q0 59.392 29.696 59.392 27.648 0 27.648-59.392 0-67.584-71.68-67.584-11.264 0-20.48 1.024v-125.952h133.12v53.248q98.304 25.6 98.304 139.264 0 72.704-46.592 119.296t-119.296 46.592zM492.544 323.072q-31.744 0-54.784-24.064t-23.040-55.808 23.040-55.808 54.784-24.064 55.296 24.064 23.552 55.808-23.552 55.808-55.296 24.064zM492.544 879.104q172.032 0 294.4-121.344t122.368-294.4q0-171.008-122.368-293.376t-294.4-122.368q-173.056 0-294.4 122.368t-121.344 293.376q0 173.056 121.344 294.4t294.4 121.344z" />
<glyph unicode="&#xe011;" glyph-name="uniE011" data-tags="uniE011" horiz-adv-x="900" d="M783.36 642.56q41.984 0 72.192-30.208t30.208-72.192v-296.96q0-41.984-30.208-72.192t-72.192-30.208h-706.56v143.36h665.6v215.040h-512v-112.64l-215.040 184.32 215.040 184.32v-112.64h552.96z" />
<glyph unicode="&#xe012;" glyph-name="uniE012" data-tags="uniE012" horiz-adv-x="920" d="M110.592 150.016h184.32v184.32h-184.32v-184.32zM405.504 444.928v-405.504h-405.504v405.504h405.504zM626.688 150.016h184.32v184.32h-184.32v-184.32zM921.6 444.928v-405.504h-405.504v405.504h405.504zM110.592 666.112h184.32v184.32h-184.32v-184.32zM405.504 961.024v-405.504h-405.504v405.504h405.504zM626.688 666.112h184.32v184.32h-184.32v-184.32zM921.6 961.024v-405.504h-405.504v405.504h405.504z" />
<glyph unicode="&#xe013;" glyph-name="uniE013" data-tags="uniE013" horiz-adv-x="1218" d="M1014.784 689.664q30.72 0 53.76-23.552t23.040-55.296v-375.808q0-31.744-23.040-55.296t-53.76-23.552h-77.824l34.816-156.672h-707.584l27.648 156.672h-84.992q-33.792 0-56.32 23.040t-22.528 55.808v375.808q0 32.768 22.528 55.808t56.32 23.040h99.328v120.832h33.792v131.072h540.672v-131.072h34.816v-120.832h99.328zM376.832 893.44v-297.984h467.968v297.984h-467.968zM261.12 495.104q23.552 0 39.936 16.384t16.384 38.912q0 21.504-16.384 38.4t-39.936 16.896q-21.504 0-38.4-16.896t-16.896-38.4q0-22.528 16.896-38.912t38.4-16.384zM325.632 47.616h580.608l-48.128 246.784h-495.616zM583.68 162.304v35.84h-142.336v-35.84h142.336zM786.432 162.304v35.84h-142.336v-35.84h142.336z" />
<glyph unicode="&#xe014;" glyph-name="uniE014" data-tags="uniE014" horiz-adv-x="968" d="M0 594.432q0 59.392 31.232 111.616t84.48 91.136 124.928 61.952 153.6 23.040 153.6-23.040 124.928-61.952 83.968-91.136 30.72-111.616q0-60.416-30.72-112.64t-83.968-91.136-124.928-61.44-153.6-22.528q-19.456 0-37.376 1.536t-36.352 3.584q-36.864-28.672-78.848-49.152t-91.136-30.72q-21.504-5.12-43.008-6.144-12.288-2.048-17.408 11.264v1.024q-2.048 6.144 2.048 10.24l8.192 8.192q18.432 18.432 32.256 39.936t23.040 68.608q-71.68 38.912-113.664 98.304t-41.984 131.072zM328.704 219.648l13.312 8.192q13.312-2.048 26.624-2.048h25.6q100.352 0 186.88 28.16t150.528 77.824 100.352 117.248 36.352 145.408q0 20.48-3.072 41.984 49.152-38.912 76.8-88.064t27.648-106.496q0-70.656-41.984-129.536t-112.64-98.816q8.192-47.104 22.528-68.096t31.744-39.424q5.12-5.12 8.704-9.728t1.536-9.728q-1.024-6.144-6.656-10.24t-10.752-3.072q-11.264 2.048-21.504 3.584t-21.504 4.608q-95.232 20.48-168.96 77.824-18.432-2.048-36.864-3.584t-37.888-1.536q-70.656 0-132.608 17.408t-114.176 48.128z" />
<glyph unicode="&#xe015;" glyph-name="uniE015" data-tags="uniE015" horiz-adv-x="1236" d="M264.192 837.12h845.824v-646.144q0-45.056-33.28-79.36t-74.24-34.304h-735.232q-139.264 0-139.264 161.792v473.088h136.192v124.928zM264.192 239.104v403.456h-67.584v-403.456q0-87.040 32.768-87.040 34.816 0 34.816 87.040zM1040.384 190.976v576.512h-707.584v-528.384q0-55.296-19.456-93.184h689.152q16.384 0 27.136 14.848t10.752 30.208zM605.184 329.216v-23.552h-162.816v23.552h162.816zM605.184 255.488v-22.528h-162.816v22.528h162.816zM669.696 288.256v260.096h272.384v-260.096h-272.384zM605.184 472.576v-23.552h-162.816v23.552h162.816zM605.184 398.848v-22.528h-162.816v22.528h162.816zM605.184 548.352v-23.552h-162.816v23.552h162.816zM466.944 622.080v45.056h425.984v-45.056h-425.984z" />
<glyph unicode="&#xe016;" glyph-name="uniE016" data-tags="uniE016" horiz-adv-x="746" d="M680.96 704q21.504 0 36.352-14.848t14.848-36.352v-614.4q0-21.504-14.848-36.352t-36.352-14.848h-409.6q-21.504 0-36.352 14.848t-14.848 36.352v153.6h-153.6q-21.504 0-36.352 14.848t-14.848 36.352v614.4q0 21.504 14.848 36.352t36.352 14.848h409.6q21.504 0 36.352-14.848t14.848-36.352v-153.6h153.6zM117.76 294.4h102.4v359.424q0 21.504 14.336 35.84t35.84 14.336h154.624v102.4h-307.2v-512zM629.76 89.6v512h-307.2v-512h307.2z" />
<glyph unicode="&#xe017;" glyph-name="uniE017" data-tags="uniE017" horiz-adv-x="1256" d="M157.696 547.328q0 157.696 109.568 257.024 99.328 109.568 256.512 109.568t257.536-109.568q109.568-99.328 110.592-257.024 0-89.088-36.864-162.816l146.432-146.432q31.744-36.864 31.744-83.968t-36.864-78.848q-31.744-36.864-78.848-36.864t-83.968 31.744l-146.432 146.432q-73.728-36.864-162.816-36.864-157.696 0-257.024 110.592-109.568 99.328-109.568 257.024zM262.144 546.816q0-104.96 78.848-183.296t183.296-78.336 183.296 78.336 78.848 183.296-78.848 183.808-183.296 78.848-183.296-78.848-78.848-183.808zM366.592 494.080v105.472h105.472v105.472h104.448v-105.472h104.448v-105.472h-104.448v-104.448h-104.448v104.448h-105.472z" />
<glyph unicode="&#xe018;" glyph-name="uniE018" data-tags="uniE018" horiz-adv-x="1256" d="M157.696 547.328q0 157.696 109.568 257.024 99.328 109.568 256.512 109.568t257.536-109.568q109.568-99.328 110.592-257.024 0-89.088-36.864-162.816l146.432-146.432q31.744-36.864 31.744-83.968t-36.864-78.848q-31.744-36.864-78.848-36.864t-83.968 31.744l-146.432 146.432q-73.728-36.864-162.816-36.864-157.696 0-257.024 110.592-109.568 99.328-109.568 257.024zM262.144 547.328q0-115.712 78.848-183.296 78.848-78.848 183.296-78.848t183.296 78.336 78.848 183.296-78.848 183.808q-67.584 78.848-183.296 78.848-105.472 0-183.808-78.336t-78.336-183.808zM366.592 494.080v105.472h314.368v-105.472h-314.368z" />
<glyph unicode="&#xe019;" glyph-name="uniE019" data-tags="uniE019" horiz-adv-x="624" d="M592.896 521.728l-240.64-230.4q-17.408-17.408-39.936-17.408t-39.936 17.408q-220.16 208.896-240.64 230.4-15.36 16.384-15.872 40.96t15.872 41.984q37.888 37.888 80.896 0l199.68-192.512 199.68 192.512q43.008 37.888 80.896 0 16.384-17.408 15.872-41.984t-15.872-40.96z" />
<glyph unicode="&#xe01a;" glyph-name="uniE01A" data-tags="uniE01A" horiz-adv-x="506" d="M0 476.16q0 19.968 15.36 35.328l353.28 354.304q15.36 15.36 35.84 15.36t34.816-15.36l53.248-53.248q15.36-14.336 15.36-34.816t-15.36-35.84l-267.264-268.288 267.264-263.168q15.36-15.36 15.36-35.328t-15.36-35.328l-53.248-53.248q-14.336-15.36-34.816-15.36t-35.84 15.36l-353.28 354.304q-15.36 15.36-15.36 35.328z" />
<glyph unicode="&#xe01b;" glyph-name="uniE01B" data-tags="uniE01B" horiz-adv-x="506" d="M0 175.616q0 20.48 15.36 35.84l267.264 267.264-267.264 264.192q-15.36 15.36-15.36 35.328t15.36 34.304l52.224 54.272q15.36 15.36 35.84 15.36t35.84-15.36l353.28-354.304q15.36-15.36 15.36-35.84t-15.36-35.84l-353.28-353.28q-15.36-15.36-35.84-15.36t-35.84 15.36l-52.224 52.224q-15.36 15.36-15.36 35.84z" />
<glyph unicode="&#xe01c;" glyph-name="uniE01C" data-tags="uniE01C" horiz-adv-x="624" d="M592.896 374.272q15.36-16.384 15.872-40.96t-15.872-41.984q-37.888-37.888-80.896 0l-199.68 192.512-199.68-192.512q-43.008-37.888-80.896 0-16.384 17.408-15.872 41.984t15.872 40.96l240.64 230.4q17.408 17.408 39.936 17.408t39.936-17.408q220.16-208.896 240.64-230.4z" />
<glyph unicode="&#xe01d;" glyph-name="uniE01D" data-tags="uniE01D" horiz-adv-x="432" d="M217.088 390.656l-217.088 217.088h434.176z" />
<glyph unicode="&#xe01e;" glyph-name="uniE01E" data-tags="uniE01E" horiz-adv-x="432" d="M434.176 390.656h-434.176l217.088 217.088z" />
<glyph unicode="&#xe01f;" glyph-name="uniE01F" data-tags="uniE01F" horiz-adv-x="378" d="M115.712 728.576l230.4-240.64q17.408-17.408 17.408-39.936t-17.408-39.936q-208.896-220.16-230.4-240.64-16.384-15.36-40.96-15.872t-41.984 15.872q-37.888 37.888 0 80.896l192.512 199.68-192.512 199.68q-37.888 43.008 0 80.896 17.408 16.384 41.984 15.872t40.96-15.872z" />
<glyph unicode="&#xe020;" glyph-name="uniE020" data-tags="uniE020" horiz-adv-x="378" d="M263.168 728.576q16.384 15.36 40.96 15.872t41.984-15.872q37.888-37.888 0-80.896l-192.512-199.68 192.512-199.68q37.888-43.008 0-80.896-17.408-16.384-41.984-15.872t-40.96 15.872l-230.4 240.64q-17.408 17.408-17.408 39.936t17.408 39.936q208.896 220.16 230.4 240.64z" />
<glyph unicode="&#xe021;" glyph-name="uniE021" data-tags="uniE021" horiz-adv-x="920" d="M110.592 150.016h184.32v184.32h-184.32v-184.32zM405.504 444.928v-405.504h-405.504v405.504h405.504zM921.6 186.88v-147.456h-405.504v147.456h405.504zM110.592 666.112h184.32v184.32h-184.32v-184.32zM405.504 961.024v-405.504h-405.504v405.504h405.504zM921.6 444.928v-147.456h-405.504v147.456h405.504zM921.6 702.976v-147.456h-405.504v147.456h405.504zM921.6 961.024v-147.456h-405.504v147.456h405.504z" />
<glyph unicode="&#xe022;" glyph-name="uniE022" data-tags="uniE022" horiz-adv-x="920" d="M921.6 186.88v-147.456h-921.6v147.456h921.6zM921.6 444.928v-147.456h-921.6v147.456h921.6zM921.6 702.976v-147.456h-921.6v147.456h921.6zM921.6 961.024v-147.456h-921.6v147.456h921.6z" />
<glyph unicode="&#xe023;" glyph-name="uniE023" data-tags="uniE023" horiz-adv-x="806" d="M0 477.696q0 83.968 31.744 157.184t86.528 128.512 128.512 87.040 157.696 31.744 157.184-31.744 128-87.040 86.528-128.512 31.744-157.184-31.744-157.184-86.528-128.512-128-87.040-157.184-31.744-157.696 31.744-128.512 87.040-86.528 128.512-31.744 157.184zM171.008 437.76q0-7.168 5.12-12.288t11.264-5.12h158.72v-173.056q0-8.192 4.608-12.8t11.776-4.608h83.968q6.144 0 11.264 4.608t5.12 12.8v173.056h157.696q7.168 0 11.776 5.12t4.608 12.288v79.872q0 6.144-4.608 11.264t-11.776 5.12h-157.696v174.080q0 8.192-5.12 12.8t-11.264 4.608h-83.968q-7.168 0-11.776-4.608t-4.608-12.8v-174.080h-158.72q-6.144 0-11.264-5.12t-5.12-11.264v-79.872z" />
<glyph unicode="&#xe024;" glyph-name="uniE024" data-tags="uniE024" horiz-adv-x="992" d="M769.024 220.672q96.256-34.816 152.576-68.608t56.32-57.344v-107.52h-962.56v107.52q0 23.552 56.32 57.344t152.576 68.608q95.232 34.816 131.072 70.656t35.84 97.28q0 20.48-10.24 32.256t-24.576 32.256-21.504 59.392q-2.048 12.288-9.216 17.92t-14.848 8.192-14.336 17.408-8.704 44.544q0 15.36 4.608 26.112t8.704 13.824l5.12 3.072q-9.216 51.2-13.312 90.112-2.048 21.504 6.144 48.64t28.16 56.832 64 49.664 105.472 19.968 105.472-19.968 64-49.664 28.16-56.832 6.144-48.64l-13.312-90.112q18.432-8.192 18.432-43.008-2.048-29.696-8.704-44.544t-14.336-17.408-14.848-8.192-9.216-17.92q-7.168-38.912-21.504-59.392t-24.576-32.256-10.24-32.256q0-61.44 35.84-97.28t131.072-70.656z" />
<glyph unicode="&#xe025;" glyph-name="uniE025" data-tags="uniE025" horiz-adv-x="746" d="M231.424 402.944v92.16h286.72v-92.16h-286.72zM629.76 908.8q41.984 0 72.192-30.208t30.208-72.192v-716.8q0-41.984-30.208-72.192t-72.192-30.208h-512q-41.984 0-72.192 30.208t-30.208 72.192v716.8q0 41.984 30.208 72.192t72.192 30.208h512zM629.76 89.6v716.8h-512v-716.8h512zM517.12 694.784v-89.088h-286.72v89.088h286.72zM517.12 293.376v-90.112h-286.72v90.112h286.72z" />
<glyph unicode="&#xe026;" glyph-name="uniE026" data-tags="uniE026" horiz-adv-x="806" d="M0 133.632v591.872q0 24.576 17.92 42.496t42.496 17.92h38.912v-74.752q0-29.696 20.992-50.688t50.688-20.992h16.384q30.72 0 52.224 20.992t21.504 50.688v74.752h62.464v-74.752q0-29.696 20.992-50.688t50.688-20.992h17.408q30.72 0 51.712 20.992t20.992 50.688v74.752h62.464v-74.752q0-29.696 21.504-50.688t51.2-20.992h16.384q30.72 0 51.712 20.992t20.992 50.688v74.752h38.912q24.576 0 41.984-17.92t17.408-42.496v-591.872q0-24.576-17.408-42.496t-41.984-17.92h-688.128q-24.576 0-42.496 17.92t-17.92 42.496zM80.896 154.112h647.168v429.056h-647.168v-429.056zM139.264 711.168v138.24q0 13.312 9.728 23.040t22.016 9.728h16.384q14.336 0 23.552-9.728t9.216-23.040v-138.24q0-12.288-9.216-21.504t-23.552-9.216h-16.384q-12.288 0-22.016 9.216t-9.728 21.504zM190.464 244.224q0 37.888 21.504 62.464t47.104 43.008l47.104 33.792q21.504 16.384 21.504 38.912 0 21.504-12.288 31.232t-30.72 9.728q-12.288 0-22.528-4.608t-17.408-12.8q-4.096-4.096-7.68-8.192t-6.656-9.216l-36.864 24.576q8.192 14.336 22.528 28.672 11.264 12.288 29.184 20.992t43.52 8.704q37.888 0 66.048-22.528t28.16-63.488q0-22.528-9.728-38.912t-25.088-30.208-32.768-25.088l-31.744-20.48q-15.36-11.264-25.6-23.040t-10.24-27.136h99.328v36.864h45.056v-78.848h-199.68q-1.024 7.168-1.536 13.312t-0.512 12.288zM364.544 711.168v138.24q0 13.312 9.216 23.040t21.504 9.728h17.408q13.312 0 23.040-9.728t9.728-23.040v-138.24q0-12.288-9.728-21.504t-23.040-9.216h-17.408q-12.288 0-21.504 9.216t-9.216 21.504zM428.032 429.568v75.776h201.728v-35.84l-125.952-250.88h-55.296l115.712 228.352q3.072 9.216 6.144 12.288l3.072 4.096v1.024q-3.072 0-5.12-1.024h-95.232v-33.792h-45.056zM588.8 711.168v138.24q0 13.312 9.216 23.040t22.528 9.728h16.384q13.312 0 23.040-9.728t9.728-23.040v-138.24q0-12.288-9.728-21.504t-23.040-9.216h-16.384q-13.312 0-22.528 9.216t-9.216 21.504z" />
<glyph unicode="&#xe027;" glyph-name="uniE027" data-tags="uniE027" horiz-adv-x="1256" d="M262.144 75.264v314.368h209.92v-314.368h-209.92zM524.288 80.384v729.088h209.92v-729.088h-209.92zM786.432 80.384v519.168h209.92v-519.168h-209.92z" />
<glyph unicode="&#xe028;" glyph-name="uniE028" data-tags="uniE028" horiz-adv-x="1054" d="M803.84 631.296l-276.48-260.096-276.48 260.096h153.6v251.904h245.76v-251.904h153.6zM1005.568 292.352q18.432-10.24 27.648-32.256t4.096-42.496l-28.672-156.672q-4.096-19.456-23.040-33.792t-40.448-14.336h-835.584q-21.504 0-40.448 14.336t-23.040 33.792l-28.672 156.672q-5.12 20.48 4.096 42.496t27.648 32.256l162.816 109.568h100.352l-174.080-134.144h182.272q9.216 0 12.288-6.144l40.96-114.688h307.2l40.96 114.688q3.072 6.144 12.288 6.144h182.272l-174.080 134.144h100.352z" />
<glyph unicode="&#xe029;" glyph-name="uniE029" data-tags="uniE029" horiz-adv-x="838" d="M805.888 168.448q34.816-34.816 7.168-62.464l-48.128-48.128q-14.336-14.336-34.304-14.336t-34.304 14.336l-194.56 194.56q-73.728-43.008-159.744-43.008-131.072 0-228.864 97.792t-97.792 228.864 92.672 223.744 223.744 92.672 228.864-97.792 97.792-228.864q0-86.016-46.080-163.84zM112.64 536.064q0-90.112 69.632-159.744t159.744-69.632 154.624 64.512 64.512 154.624-69.632 159.744-159.744 69.632-154.624-64.512-64.512-154.624z" />
<glyph unicode="&#xe02a;" glyph-name="uniE02A" data-tags="uniE02A" horiz-adv-x="1256" d="M314.368 127.488v366.592q0 31.744 16.384 36.864l30.72 16.384h58.368q0 62.464 5.12 89.088 0 20.48 10.24 83.968 15.36 40.96 36.864 73.728 47.104 67.584 157.184 67.584t157.184-67.584q20.48-31.744 36.864-73.728 10.24-63.488 10.24-83.968 6.144-26.624 5.12-89.088h57.344l31.744-16.384q16.384-5.12 16.384-36.864v-366.592q0-52.224-52.224-52.224h-525.312q-52.224 0-52.224 52.224zM524.288 547.328h209.92v104.448q0 41.984-31.744 73.728t-73.216 31.744-73.216-31.744-31.744-73.728v-104.448z" />
<glyph unicode="&#xe02b;" glyph-name="uniE02B" data-tags="uniE02B" horiz-adv-x="1256" d="M157.696 127.488v472.064q0 41.984 31.232 73.728t73.216 31.744h472.064q41.984 0 73.216-31.744t31.232-73.728v-472.064q0-41.984-31.232-73.216t-73.216-31.232h-472.064q-41.984 0-73.216 31.232t-31.232 73.216zM262.144 127.488h472.064v472.064h-472.064v-472.064zM314.368 757.248v52.224q0 40.96 31.232 72.704t74.24 31.744h524.288q40.96 0 72.704-31.232t31.744-73.216v-524.288q0-73.728-52.224-89.088-48.128-16.384-104.448-16.384v105.472h52.224v524.288h-524.288v-52.224h-105.472z" />
<glyph unicode="&#xe02c;" glyph-name="uniE02C" data-tags="uniE02C" horiz-adv-x="806" d="M0 439.808v75.776q0 20.48 14.336 34.816t34.816 14.336h267.264v266.24q0 21.504 14.336 36.352t35.84 14.848h75.776q20.48 0 34.816-14.848t14.336-35.328v-267.264h267.264q20.48 0 34.816-14.336t14.336-34.816v-75.776q0-20.48-14.336-34.816t-34.816-14.336h-267.264v-266.24q0-21.504-14.336-36.352t-34.816-14.848h-75.776q-20.48 0-35.328 14.848t-14.848 35.328v267.264h-266.24q-21.504 0-35.84 13.824t-14.336 35.328z" />
<glyph unicode="&#xe02d;" glyph-name="uniE02D" data-tags="uniE02D" d="M440.57 720.048h547.43v-651.786h-952v759.476h250.362l75.534-75.204c20.898-20.806 49.186-32.486 78.674-32.486z" />
<glyph unicode="&#xe02e;" glyph-name="uniE02E" data-tags="uniE02E" d="M920.026 63.642h-828.57l-55.456 433.972h952l-67.974-433.972zM914.058 578.398v178.622l-466.708 0.002c-20.516 0-40.196 8.118-54.746 22.578l-53.096 52.758h-231.876v-253.96h806.426z" />
<glyph unicode="&#xe02f;" glyph-name="uniE02F" data-tags="uniE02F" d="M853.31 960h-682.62c-93.88 0-170.69-76.784-170.69-170.658v-682.656c0-93.876 76.81-170.686 170.69-170.686h682.622c93.938 0 170.688 76.81 170.688 170.686v682.656c0 93.874-76.75 170.658-170.69 170.658zM256 704h512c9.138 0 18.004-1.962 26.144-5.662l-282.144-329.168-282.144 329.17c8.14 3.696 17.006 5.66 26.144 5.66zM192 256v384c0 1.34 0.056 2.672 0.14 4l187.664-218.94-185.598-185.6c-1.444 5.338-2.206 10.886-2.206 16.54zM768 192h-512c-5.654 0-11.202 0.762-16.54 2.206l182.118 182.118 90.422-105.496 90.424 105.494 182.116-182.118c-5.34-1.442-10.886-2.204-16.54-2.204zM832 256c0-5.654-0.762-11.2-2.206-16.54l-185.598 185.598 187.664 218.942c0.084-1.328 0.14-2.66 0.14-4v-384z" />
<glyph unicode="&#xe032;" glyph-name="uniE032" data-tags="uniE032" d="M864-64h-704c-17.696 0-32 14.304-32 32v672h288c17.696 0 32 14.336 32 32v288h416c17.696 0 32-14.336 32-32v-960c0-17.696-14.304-32-32-32zM384 960v-256h-256l256 256z" />
<glyph unicode="&#xe033;" glyph-name="uniE033" data-tags="uniE033" d="M169.656-62.588h681.73v766.92h-681.73v-766.92zM652.572 562.302h56.756v-511.266h-56.756v511.266zM482.136 562.302h56.756v-511.266h-56.756v511.266zM311.672 562.302h56.84v-511.266h-56.84v511.266zM766.168 789.578h-681.688c0 47.036 38.084 85.218 85.176 85.218h198.856v85.204h284.060v-85.204h198.8c47.092 0 85.26-38.168 85.26-85.218h-170.464z" />
<glyph unicode="&#xe035;" glyph-name="uniE035" data-tags="uniE035" d="M960 832h-896c-35.2 0-64-28.8-64-64v-448c0-35.2 28.8-64 64-64h128v-192l144 192h624c35.2 0 64 28.8 64 64v448c0 35.2-28.8 64-64 64zM320 448h-128v128h128v-128zM576 448h-128v128h128v-128zM832 448h-128v128h128v-128z" />
<glyph unicode="&#xe036;" glyph-name="uniE036" data-tags="uniE036" d="M512.052-23.040c260.148 0 470.988 210.892 470.988 471.040s-210.842 471.040-470.988 471.040c-260.2 0-471.092-210.892-471.092-471.040s210.892-471.040 471.092-471.040zM512.052 816.64c203.622 0 368.588-165.068 368.588-368.64s-165.018-368.64-368.588-368.64c-203.674 0-368.692 165.018-368.692 368.64s165.018 368.64 368.692 368.64zM419.84 250.88h184.372v209.408h115.2l-207.36 195.072-207.412-195.072h115.2v-209.408z" />
<glyph unicode="&#xe037;" glyph-name="uniE037" data-tags="uniE037" d="M841.77 559.574l-68.352 118.23-154.24-44.118-38.912 155.648h-136.532l-38.912-155.648-154.284 44.116-68.266-118.23 115.328-111.488-115.37-111.53 68.31-118.314 154.282 44.16 38.912-155.734h136.532l38.912 155.69 154.326-44.118 68.266 118.23-115.414 111.574 115.414 111.532zM512 356.992c-50.262 0-91.050 40.746-91.050 91.008s40.788 91.008 91.050 91.008c50.304 0 90.966-40.746 90.966-91.008s-40.62-91.008-90.966-91.008z" />
<glyph unicode="&#xe038;" glyph-name="uniE038" data-tags="uniE038" d="M742.4 755.2h-460.8c-50.892 0-76.8-15.668-76.8-66.56v-481.28c0-50.892 25.908-66.56 76.8-66.56h460.8c50.892 0 76.8 15.668 76.8 66.56v481.28c0 50.892-25.908 66.56-76.8 66.56z" />
<glyph unicode="&#xe039;" glyph-name="uniE039" data-tags="uniE039" d="M107.936 224.928l180.992-180.992 316.8 316.736 226.272-226.24v633.568h-633.568l226.272-226.272z" />
<glyph unicode="&#xe03a;" glyph-name="uniE03A" data-tags="uniE03A" d="M735.072 43.936l180.992 180.992-316.736 316.8 226.24 226.272h-633.568v-633.568l226.272 226.272z" />
<glyph unicode="&#xe03b;" glyph-name="uniE03B" data-tags="uniE03B" d="M916.064 671.072l-180.992 180.992-316.8-316.736-226.272 226.24v-633.568h633.568l-226.272 226.272z" />
<glyph unicode="&#xe03c;" glyph-name="uniE03C" data-tags="uniE03C" d="M288.928 852.064l-180.992-180.992 316.736-316.8-226.24-226.272h633.568v633.568l-226.272-226.272z" />
<glyph unicode="&#xe03d;" glyph-name="uniE03D" data-tags="uniE03D" d="M640 896v-448h320l-448-448-448 448h320v448z" />
<glyph unicode="&#xe03e;" glyph-name="uniE03E" data-tags="uniE03E" d="M384 0v448h-320l448 448 448-448h-320v-448z" />
<glyph unicode="&#xe03f;" glyph-name="uniE03F" data-tags="uniE03F" d="M960 320h-448v-320l-448 448 448 448v-320h448z" />
<glyph unicode="&#xe040;" glyph-name="uniE040" data-tags="uniE040" d="M64 576h448v320l448-448-448-448v320h-448z" />
<glyph unicode="&#xe041;" glyph-name="uniE041" data-tags="uniE041" horiz-adv-x="846" d="M0.512 574.464q4.608 13.824 27.136 17.92l257.024 36.864 113.664 232.448q11.264 21.504 25.6 21.504t24.576-21.504l115.712-232.448 254.976-36.864q23.552-4.096 28.16-17.92t-11.776-30.208l-185.344-181.248 43.008-253.952q4.096-23.552-7.68-32.256t-32.256 3.584l-229.376 118.784-228.352-118.784q-22.528-12.288-34.304-3.584t-6.656 32.256l44.032 253.952-185.344 181.248q-17.408 16.384-12.8 30.208z" />
<glyph unicode="&#xe042;" glyph-name="uniE042" data-tags="uniE042" horiz-adv-x="846" d="M0.512 574.464q4.608 13.824 27.136 17.92l257.024 35.84 113.664 233.472q10.24 20.48 25.088 20.48t25.088-20.48l115.712-233.472 254.976-35.84q23.552-4.096 28.16-17.92t-11.776-30.208l-185.344-181.248 43.008-253.952q3.072-17.408-2.56-26.624t-16.896-9.216q-7.168 0-20.48 5.12l-229.376 120.832-228.352-120.832q-13.312-5.12-20.48-5.12-12.288 0-17.92 9.216t-2.56 26.624l44.032 253.952-185.344 181.248q-17.408 16.384-12.8 30.208zM337.92 157.184l84.992 134.144 38.912-19.456 133.12-71.68-24.576 150.528-8.192 41.984 30.72 28.672 108.544 105.472-149.504 21.504-41.984 7.168-19.456 37.888-66.56 135.168v-134.144l-1.024-173.568v-129.536z" />
<glyph unicode="&#xe043;" glyph-name="uniE043" data-tags="uniE043" d="M874.022 810.020c-92.652 92.656-220.636 149.98-362.022 149.98-219.488 0-406.69-138.128-479.498-332.188l119.876-44.954c54.604 145.546 195.006 249.142 359.622 249.142 106.040 0 202.020-43 271.506-112.494l-143.506-143.506h384v384l-149.978-149.98zM512 64c-106.040 0-202.026 42.992-271.512 112.488l143.512 143.512h-384v-384l149.994 149.994c92.646-92.662 220.618-149.994 362.006-149.994 219.49 0 406.692 138.128 479.5 332.188l-119.876 44.954c-54.604-145.546-195.006-249.142-359.624-249.142z" />
<glyph unicode="&#xe044;" glyph-name="uniE044" data-tags="uniE044" d="M0 960v-301.176h301.176v301.176h-301.176zM722.824 598.588v-301.176h301.176v301.176h-301.176zM361.412 598.588v-301.176h301.176v301.176h-301.176zM361.412 237.176v-301.176h301.176v301.176h-301.176zM722.824 237.176v-301.176h301.176v301.176h-301.176z" />
<glyph unicode="&#xe045;" glyph-name="uniE045" data-tags="uniE045" d="M896 768h-768v-640h768v640zM1024 896v0-896h-1024v896h1024zM832 192h-640v128l192 320 263-320 185 128v-64zM640 608c0-53.020 42.98-96 96-96s96 42.98 96 96c0 53.020-42.98 96-96 96s-96-42.98-96-96z" />
<glyph unicode="&#xe046;" glyph-name="uniE046" data-tags="uniE046" d="M507.428 283.428l66.286 66.286-86.858 86.858-66.286-66.286v-32h54.858v-54.858h32zM758.858 694.858q-9.142 9.142-18.858-0.572l-200-200q-9.714-9.714-0.572-18.858t18.858 0.572l200 200q9.714 9.714 0.572 18.858zM804.572 355.428v-108.572q0-68-48.286-116.286t-116.286-48.286h-475.428q-68 0-116.286 48.286t-48.286 116.286v475.428q0 68 48.286 116.286t116.286 48.286h475.428q36 0 66.858-14.286 8.572-4 10.286-13.142 1.714-9.714-5.142-16.572l-28-28q-8-8-18.286-4.572-13.142 3.428-25.714 3.428h-475.428q-37.714 0-64.572-26.858t-26.858-64.572v-475.428q0-37.714 26.858-64.572t64.572-26.858h475.428q37.714 0 64.572 26.858t26.858 64.572v72q0 7.428 5.142 12.572l36.572 36.572q8.572 8.572 20 4t11.428-16.572zM749.714 777.142l164.572-164.572-384-384h-164.572v164.572zM1003.428 701.714l-52.572-52.572-164.572 164.572 52.572 52.572q16 16 38.858 16t38.858-16l86.858-86.858q16-16 16-38.858t-16-38.858z" />
<glyph unicode="&#xe047;" glyph-name="uniE047" data-tags="uniE047" d="M853.334 832v85.334h-256v-85.334h85.332v-768h-85.332v-85.334h256v85.334h-85.334v768zM597.334 732.074c0 4.438-8.32 9.77-13.654 13.568-23.51 17.536-49.494 28.97-78.336 34.262-28.842 5.334-62.506 7.978-101.248 7.978-28.074 0-56.918-4.438-86.4-13.482-29.526-9.002-54.614-19.926-75.35-32.896-24.020-15.19-43.476-32.512-58.452-51.84-14.976-19.37-22.486-39.68-22.486-60.886 0-20.31 5.418-38.614 16.256-54.998s27.776-24.534 50.816-24.534c25.814 0 45.994 6.656 60.544 20.096 14.55 13.312 21.802 28.074 21.802 44.246 0 15.19-2.218 31.786-6.57 49.792-4.438 17.962-6.57 31.574-6.57 40.79 7.382 7.85 20.182 15.318 38.4 22.486 18.176 7.168 37.93 10.71 59.136 10.71 30.89 0 54.742-6.314 71.594-18.986 16.854-12.714 29.866-27.562 39.082-44.63 8.278-15.232 6.102-49.75 6.102-49.75v-101.76c0-11.99-57.898-28.586-121.344-49.792s-102.016-35.712-122.794-43.562c-16.556-6.486-32.512-15.148-51.456-25.942-18.902-10.88-33.28-23.168-44.842-37.034-14.762-16.598-25.386-35.242-32.768-55.978s-10.796-44.246-10.796-70.572c0-50.73 16.598-91.776 49.578-123.136 32.938-31.318 75.094-47.062 126.25-47.062 48.426 0 89.814 18.986 124.16 36.48 34.434 17.622 66.604 43.692 96.556 86.358h4.182c6.016-42.666 19.37-67.030 40.79-83.882l27.818-1.452v625.408zM523.178 224.982c-17.066-21.718-38.058-40.49-62.934-56.49-24.918-15.914-53.76-23.936-86.486-23.936-30.934 0-56.362 9.002-76.416 27.094-20.096 18.006-30.080 46.166-30.080 84.48 0 29.568 6.656 55.168 20.096 76.63 13.312 21.546 31.574 40.106 54.57 55.808 25.43 16.682 52.822 30.506 82.346 41.642 29.482 11.094 59.648 21.248 98.902 32.726l0.002-237.954z" />
<glyph unicode="&#xe048;" glyph-name="uniE048" data-tags="uniE048" d="M771.516 640c18.126 12.88 35.512 27.216 51.444 43.148 33.402 33.402 55.746 74.5 62.912 115.722 7.858 45.186-3.672 87.14-31.63 115.1-22.3 22.298-52.51 34.086-87.364 34.086-49.632 0-101.922-23.824-143.46-65.362-66.476-66.476-105.226-158.238-126.076-223.722-15.44 65.802-46.206 154.644-106.018 214.458-32.094 32.092-73.114 48.57-111.846 48.57-31.654 0-61.78-11.004-84.26-33.486-49.986-49.988-43.232-137.786 15.086-196.104 20.792-20.792 45.098-38.062 70.72-52.412h-217.024v-256h64v-448h768v448.002h64v256h-188.484zM674.326 831.782c27.724 27.724 62.322 44.274 92.55 44.274 10.7 0 25.708-2.254 36.45-12.998 26.030-26.028 11.412-86.308-31.28-128.998-43.946-43.946-103.060-74.168-154.432-94.060h-50.672c18.568 57.548 52.058 136.456 107.384 191.782zM233.934 799.11c-0.702 9.12-0.050 26.248 12.196 38.494 10.244 10.244 23.788 12.396 33.348 12.396v0c21.258 0 43.468-10.016 60.932-27.48 33.872-33.872 61.766-87.772 80.668-155.876 0.51-1.84 1.008-3.67 1.496-5.486-1.816 0.486-3.646 0.984-5.486 1.496-68.104 18.904-122.002 46.798-155.874 80.67-15.828 15.826-25.77 36.16-27.28 55.786zM448 0h-256v416h256v-416zM448 448h-320v128h320v-128zM832 0h-256v416h256v-416zM896 448h-320v128h320v-128z" />
<glyph unicode="&#xe049;" glyph-name="uniE049" data-tags="uniE049" horiz-adv-x="876" d="M730.57 448q0 79.428-40.572 148.572l-400.572-400.572q69.142-40.572 148.572-40.572 59.428 0 113.428 23.142t93.428 62.572 62.572 93.428 23.142 113.428zM186 299.428l400.572 400.572q-69.142 40.572-148.572 40.572-59.428 0-113.428-23.142t-93.428-62.572-62.572-93.428-23.142-113.428q0-79.428 40.572-148.572zM876.856 448q0-119.428-58.858-220.286t-159.714-159.714-220.286-58.858-220.286 58.858-159.714 159.714-58.858 220.286 58.858 220.286 159.714 159.714 220.286 58.858 220.286-58.858 159.714-159.714 58.858-220.286z" />
<glyph unicode="&#xe04a;" glyph-name="uniE04A" data-tags="uniE04A" horiz-adv-x="1236" d="M294.374 312.746c0 0 321.212 490.018 664.218 609.792 0 0-125.21-381.116-549.888-718.668l-114.33 108.876zM283.374 288.060l105.814-102.152-54.998-66.27c0 0-44.066 58.308-95.924 90.368-27 16.726 45.108 78.054 45.108 78.054zM120.158 105.164c0 0 84.378 148.36 173.414 27.178 0 0 26.538-200.978-284.202-177.69 0 0.008 111.932 102.588 110.788 150.51zM1185.616 178.9c10.714 0 20.684 8.688 22.14 19.306 0 0 2.048 14.922 2.048 32.666s-2.048 32.666-2.048 32.666c-1.464 10.622-11.426 19.306-22.14 19.306h-55.37c-10.72 0-21.854 6.836-24.734 15.186-2.882 8.35-6.846 35.14 0.736 42.716l39.14 39.14c7.576 7.582 8.16 20.516 1.296 28.752l-46.050 46.060c-8.236 6.87-21.166 6.284-28.752-1.298l-39.14-39.14c-7.576-7.582-20.206-10.634-28.052-6.79-7.85 3.846-29.848 20.064-29.848 30.784v55.37c0 10.72-8.688 20.684-19.306 22.146 0 0-14.922 2.054-32.666 2.054s-32.666-2.054-32.666-2.054c-10.622-1.458-19.312-11.426-19.312-22.146v-55.37c0-10.72-6.83-21.848-15.186-24.734-8.356-2.88-35.14-6.846-42.72 0.734l-39.138 39.138c-7.58 7.582-20.516 8.168-28.746 1.304l-46.056-46.056c-6.87-8.236-6.284-21.17 1.296-28.752l39.134-39.14c7.582-7.582 10.64-20.206 6.79-28.052s-20.064-29.848-30.784-29.848h-55.364c-10.72 0-20.684-8.688-22.146-19.306 0 0-2.054-14.922-2.054-32.666 0-17.75 2.054-32.666 2.054-32.666 1.458-10.622 11.426-19.306 22.146-19.306h55.37c10.72 0 21.848-6.83 24.73-15.186 2.88-8.35 6.846-35.134-0.734-42.714l-39.134-39.134c-7.582-7.582-8.166-20.516-1.296-28.752l46.050-46.060c8.236-6.864 21.166-6.284 28.746 1.296l39.14 39.14c7.582 7.576 20.206 10.634 28.058 6.79s29.848-20.064 29.848-30.784v-55.37c0-10.714 8.688-20.684 19.312-22.14 0 0 14.916-2.048 32.666-2.048s32.666 2.048 32.666 2.048c10.622 1.464 19.306 11.426 19.306 22.14v55.37c0 10.72 6.83 21.854 15.186 24.734s35.14 6.84 42.72-0.736l39.134-39.14c7.582-7.576 20.516-8.16 28.752-1.296l46.050 46.044c6.864 8.236 6.284 21.166-1.302 28.752l-39.134 39.134c-7.582 7.582-10.64 20.206-6.79 28.058 3.846 7.852 20.064 29.848 30.784 29.848h55.376zM922.864 125.844c-58.010 0-105.034 47.020-105.034 105.034 0 58.004 47.024 105.034 105.034 105.034s105.034-47.024 105.034-105.034c0-58.010-47.024-105.034-105.034-105.034z" />
<glyph unicode="&#xe04b;" glyph-name="uniE04B" data-tags="uniE04B" d="M753.334 860.002c-66.661 66.672-147.112 99.998-241.334 99.998-94.226 0-174.668-33.333-241.334-99.998-66.663-66.663-99.998-147.108-99.998-241.334 0-48.45 7.332-88.223 21.994-119.335l243.335-516.012c6.669-14.655 17.006-26.211 31.005-34.647 14.001-8.446 28.999-12.675 45.003-12.675 16 0 31.005 4.229 45.003 12.675 14.001 8.437 24.548 19.993 31.661 34.647l242.653 516.012c14.669 31.112 22.005 70.887 22.005 119.335 0.012 94.226-33.316 174.661-99.994 241.334zM632.661 498c-33.328-33.326-73.547-49.996-120.661-49.996s-87.333 16.67-120.67 49.996c-33.333 33.337-50.003 73.556-50.003 120.67 0 47.109 16.67 87.335 50.003 120.663 33.337 33.333 73.563 50.003 120.67 50.003 47.114 0 87.333-16.67 120.661-50.003 33.33-33.326 50-73.554 50-120.663s-16.668-87.326-50-120.67z" />
<glyph unicode="&#xe04c;" glyph-name="uniE04C" data-tags="uniE04C" d="M1012.756 853.936c-7.499 7.497-16.408 11.258-26.665 11.258h-606.825c-10.27 0-19.164-3.761-26.665-11.258-7.503-7.507-11.258-16.401-11.258-26.672v-113.781h-94.82c-10.669 0-22.23-2.568-34.673-7.703-12.445-5.143-22.419-11.453-29.922-18.961l-117.338-117.336c-5.133-5.135-9.573-11.057-13.334-17.778-3.751-6.704-6.517-12.744-8.296-18.068-1.775-5.338-3.066-12.638-3.848-21.931-0.785-9.288-1.287-16.103-1.484-20.451-0.189-4.342-0.189-11.852 0-22.52 0.199-10.673 0.299-17.58 0.299-20.746v-189.628c-10.268 0-19.156-3.751-26.665-11.266-7.505-7.491-11.26-16.389-11.26-26.661 0-5.918 0.785-11.158 2.366-15.696 1.584-4.546 4.247-8.197 8.008-10.968 3.751-2.771 7.011-5.035 9.774-6.818 2.771-1.775 7.412-2.956 13.929-3.551s10.959-0.994 13.332-1.193c2.372-0.185 7.406-0.185 15.108 0 7.711 0.199 12.153 0.299 13.34 0.299h37.923c0-41.865 14.818-77.622 44.441-107.255 29.633-29.627 65.384-44.445 107.263-44.445 41.875 0 77.63 14.818 107.257 44.445 29.633 29.631 44.441 65.39 44.441 107.255h227.564c0-41.865 14.818-77.622 44.443-107.255 29.621-29.627 65.378-44.445 107.257-44.445 41.888 0 77.622 14.818 107.257 44.445 29.633 29.631 44.443 65.39 44.443 107.255 1.179 0 5.627-0.1 13.325-0.299 7.707-0.185 12.744-0.185 15.115 0 2.374 0.199 6.827 0.598 13.34 1.193 6.515 0.596 11.152 1.775 13.923 3.551s6.021 4.047 9.774 6.818c3.757 2.771 6.428 6.422 8.004 10.968 1.598 4.539 2.372 9.78 2.372 15.696v606.823c0.008 10.272-3.742 19.156-11.244 26.678zM318.807 129.175c-15.005-15.007-32.788-22.529-53.331-22.529-20.544 0-38.324 7.514-53.337 22.529-15.013 15.003-22.516 32.788-22.516 53.329 0 20.542 7.512 38.337 22.516 53.345 15.011 15.003 32.79 22.516 53.337 22.516 20.542 0 38.324-7.507 53.331-22.516 15.019-15.009 22.527-32.803 22.527-53.345 0-20.54-7.507-38.326-22.527-53.329zM341.334 485.925h-227.562v17.771c0 5.137 1.775 9.483 5.33 13.041l115.557 115.553c3.553 3.558 7.906 5.33 13.041 5.33h93.633v-151.696zM849.775 129.175c-15.007-15.007-32.788-22.529-53.329-22.529-20.549 0-38.337 7.514-53.343 22.529-15.009 15.003-22.518 32.788-22.518 53.329 0 20.542 7.507 38.337 22.518 53.345 15.007 15.003 32.795 22.516 53.343 22.516 20.54 0 38.322-7.507 53.329-22.516 15.009-15.017 22.525-32.803 22.525-53.345 0-20.54-7.501-38.326-22.525-53.329z" />
<glyph unicode="&#xe04d;" glyph-name="uniE04D" data-tags="uniE04D" d="M479.515 448.476c62.495 0 115.836 21.859 160.037 65.559 44.205 43.7 66.312 96.433 66.312 158.208 0 61.765-22.107 114.5-66.312 158.21-44.216 43.698-97.559 65.547-160.037 65.547s-115.83-21.849-160.031-65.547c-44.21-43.71-66.314-96.443-66.314-158.21 0-61.775 22.105-114.508 66.314-158.208 44.214-43.7 97.55-65.559 160.031-65.559zM528.574 0.961h-306.638c-47.546 0-85.665 13.493-114.354 40.483-28.682 27-43.029 63.818-43.029 110.426 0 20.59 0.685 40.693 2.060 60.32 1.377 19.626 4.127 40.789 8.256 63.518 4.125 22.729 9.334 43.794 15.62 63.226 6.289 19.41 14.737 38.359 25.342 56.813s22.788 34.183 36.54 47.202c13.756 13.007 30.553 23.4 50.399 31.168 19.842 7.766 41.751 11.656 65.72 11.656 3.537 0 11.784-4.176 24.756-12.53 12.965-8.356 27.601-17.679 43.906-27.978 16.308-10.281 37.533-19.612 63.659-27.952 26.129-8.354 52.356-12.532 78.683-12.532 11.555 0 23.089 0.804 34.602 2.412-1.377-7.523-2.097-15.276-2.097-23.196v-320c0-22.919 6.023-44.43 16.574-63.039zM752 448v-192h96v192h48c70.692 0 128-57.308 128-128v-192c0-70.692-57.308-128-128-128h-192c-70.692 0-128 57.308-128 128v192c0 70.692 57.308 128 128 128z" />
<glyph unicode="&#xe04e;" glyph-name="uniE04E" data-tags="uniE04E" d="M610 448c0-54.125-43.875-98-98-98s-98 43.875-98 98 43.875 98 98 98 98-43.875 98-98zM741.188 621.391c-4.711 12.766-12.227 24.32-21.992 33.805-9.484 9.766-21.031 17.281-33.805 21.992-10.359 4.023-25.922 8.813-54.586 10.117-31.008 1.414-40.305 1.719-118.805 1.719-78.508 0-87.805-0.297-118.805-1.711-28.664-1.313-44.234-6.102-54.586-10.125-12.773-4.711-24.328-12.227-33.805-21.992-9.766-9.484-17.281-21.031-22-33.805-4.023-10.359-8.813-25.93-10.117-54.594-1.414-31-1.719-40.297-1.719-118.805 0-78.5 0.305-87.797 1.719-118.805 1.305-28.664 6.094-44.227 10.117-54.586 4.719-12.773 12.227-24.32 21.992-33.805 9.484-9.766 21.031-17.281 33.805-21.992 10.359-4.031 25.93-8.82 54.594-10.125 31-1.414 40.289-1.711 118.797-1.711 78.516 0 87.812 0.297 118.805 1.711 28.664 1.305 44.234 6.094 54.594 10.125 25.641 9.891 45.906 30.156 55.797 55.797 4.023 10.359 8.813 25.922 10.125 54.586 1.414 31.008 1.711 40.305 1.711 118.805 0 78.508-0.297 87.805-1.711 118.805-1.305 28.664-6.094 44.234-10.125 54.594zM512 297.031c-83.383 0-150.977 67.586-150.977 150.969s67.594 150.969 150.977 150.969c83.375 0 150.969-67.586 150.969-150.969s-67.594-150.969-150.969-150.969zM668.938 569.656c-19.484 0-35.281 15.797-35.281 35.281s15.797 35.281 35.281 35.281 35.281-15.797 35.281-35.281c-0.008-19.484-15.797-35.281-35.281-35.281zM512 960c-282.727 0-512-229.273-512-512s229.273-512 512-512 512 229.273 512 512-229.273 512-512 512zM804.227 326.789c-1.422-31.297-6.398-52.664-13.664-71.367-15.273-39.492-46.492-70.711-85.984-85.984-18.695-7.266-40.070-12.234-71.359-13.664-31.352-1.43-41.367-1.773-121.211-1.773-79.852 0-89.859 0.344-121.219 1.773-31.289 1.43-52.664 6.398-71.359 13.664-19.625 7.383-37.391 18.953-52.078 33.914-14.953 14.68-26.523 32.453-33.906 52.070-7.266 18.695-12.242 40.070-13.664 71.359-1.445 31.359-1.781 41.375-1.781 121.219s0.336 89.859 1.773 121.211c1.422 31.297 6.391 52.664 13.656 71.367 7.383 19.617 18.961 37.391 33.922 52.070 14.68 14.961 32.453 26.531 52.070 33.914 18.703 7.266 40.070 12.234 71.367 13.664 31.352 1.43 41.367 1.773 121.211 1.773s89.859-0.344 121.211-1.781c31.297-1.422 52.664-6.391 71.367-13.648 19.617-7.383 37.391-18.961 52.078-33.922 14.953-14.688 26.531-32.453 33.906-52.070 7.273-18.703 12.242-40.070 13.672-71.367 1.43-31.352 1.766-41.367 1.766-121.211s-0.336-89.859-1.773-121.211z" />
<glyph unicode="&#xe600;" glyph-name="uniE600" data-tags="uniE600" d="M512 952.32c-271.462 0-491.52-220.058-491.52-491.52s220.058-491.52 491.52-491.52 491.52 220.058 491.52 491.52-220.058 491.52-491.52 491.52zM711.884 549.632c0.206-4.148 0.308-8.346 0.308-12.544 0-127.898-97.382-275.404-275.456-275.404-54.63 0-105.574 15.974-148.378 43.52 7.578-0.922 15.31-1.332 23.092-1.332 45.362 0 87.092 15.462 120.27 41.472-42.342 0.768-78.132 28.774-90.47 67.174 5.888-1.126 11.98-1.74 18.176-1.74 8.858 0 17.408 1.178 25.498 3.38-44.238 8.908-77.67 48.026-77.67 94.926 0 0.41 0 0.82 0.050 1.178 13.056-7.218 28.006-11.572 43.826-12.084-25.906 17.356-43.008 46.95-43.008 80.588 0 17.766 4.762 34.406 13.108 48.69 47.718-58.624 119.092-97.178 199.526-101.17-1.638 7.066-2.51 14.438-2.51 22.068 0 53.454 43.366 96.82 96.818 96.82 27.852 0 52.992-11.726 70.656-30.566 22.068 4.3 42.802 12.338 61.49 23.45-7.27-22.58-22.578-41.574-42.598-53.556 19.61 2.356 38.246 7.526 55.602 15.258-12.954-19.404-29.44-36.454-48.332-50.126z" />
<glyph unicode="&#xe601;" glyph-name="uniE601" data-tags="uniE601" d="M512 952.32c-271.462 0-491.52-220.058-491.52-491.52s220.058-491.52 491.52-491.52 491.52 220.058 491.52 491.52-220.058 491.52-491.52 491.52zM628.378 612.658h-73.882c-8.704 0-18.432-11.52-18.432-26.83v-53.35h92.366v-76.084h-92.366v-228.404h-87.246v228.404h-79.052v76.032h79.052v44.75c0 64.206 44.544 116.378 105.678 116.378h73.882v-80.896z" />
<glyph unicode="&#xe602;" glyph-name="uniE602" data-tags="uniE602" d="M512 966.4l-235.52-373.76h470.99l-235.47 373.76zM512.052-57.6l235.468 373.76-471.040 0.052 235.57-373.812z" />
<glyph unicode="&#xe603;" glyph-name="uniE603" data-tags="uniE603" d="M853.34 960h-682.654c-93.876 0-170.686-76.812-170.686-170.688v-682.628c0-93.934 76.812-170.684 170.688-170.684h682.652c93.876 0 170.66 76.748 170.66 170.684v682.628c0 93.876-76.784 170.688-170.66 170.688zM278.944 128.752c-47.97 0-86.944 38.692-86.944 86.628 0 47.684 38.972 86.812 86.944 86.812 48.158 0 87.060-39.128 87.060-86.812-0.002-47.936-38.904-86.628-87.060-86.628zM497.468 128.004c0 81.81-31.808 158.818-89.46 216.444-57.714 57.75-134.376 89.626-215.904 89.626v125.186c237.652 0 431.126-193.442 431.126-431.254l-125.762-0.002zM719.628 128.004c0 291.062-236.658 527.94-527.376 527.94v125.248c360.002 0 652.946-293.124 652.946-653.192l-125.57 0.004z" />
<glyph unicode="&#xe604;" glyph-name="uniE604" data-tags="uniE604" d="M1012.576 487.421c-53.341 87.238-125.061 157.333-215.151 210.284-90.096 52.953-185.233 79.432-285.424 79.432s-195.333-26.469-285.428-79.432c-90.098-52.951-161.814-123.046-215.147-210.284-7.616-13.332-11.424-26.475-11.424-39.431s3.809-26.099 11.424-39.427c53.333-87.242 125.049-157.343 215.147-210.282 90.096-52.959 185.237-79.418 285.428-79.418 100.193 0 195.331 26.371 285.424 79.13 90.090 52.761 161.822 122.954 215.151 210.57 7.618 13.328 11.424 26.465 11.424 39.427 0 12.955-3.807 26.099-11.424 39.431zM389.42 643.709c34.093 34.093 74.949 51.145 122.574 51.145 7.616 0 14.096-2.674 19.432-8.004 5.328-5.332 8.006-11.811 8.006-19.428 0-7.624-2.678-14.098-7.994-19.422-5.328-5.338-11.813-8.004-19.43-8.004-32.76 0-60.768-11.624-84.003-34.857-23.243-23.247-34.857-51.243-34.857-84.003 0-7.628-2.674-14.098-8.004-19.434-5.338-5.34-11.811-8.004-19.428-8.004-7.624 0-14.098 2.67-19.434 8.004-5.338 5.336-8.004 11.815-8.004 19.434 0 47.615 17.052 88.479 51.143 122.574zM760.289 261.41c-76.384-46.274-159.144-69.425-248.289-69.425-89.143 0-171.904 23.137-248.283 69.425s-139.904 108.479-190.569 186.58c57.904 89.908 130.475 157.151 217.713 201.713-23.237-39.613-34.859-82.474-34.859-128.566 0-70.483 25.052-130.754 75.143-180.856s110.383-75.143 180.856-75.143c70.479 0 130.754 25.054 180.856 75.143s75.145 110.373 75.145 180.856c0 46.092-11.624 88.959-34.863 128.566 87.234-44.563 159.809-111.812 217.711-201.713-50.657-78.101-114.175-140.292-190.559-186.58z" />
<glyph unicode="&#xe605;" glyph-name="uniE605" data-tags="uniE605" d="M722.849 376.271c30.096 43.624 45.153 91.911 45.153 144.856 0 14.855-1.521 30.856-4.575 48.003l-159.993-286.851c49.512 19.040 89.321 50.389 119.415 93.992zM746.288 771.421c0.382 0.757 0.56 2.472 0.56 5.14 0 6.479-3.046 11.612-9.149 15.441-1.137 0.761-4.85 2.952-11.144 6.579-6.281 3.613-12.289 7.139-17.991 10.572-5.712 3.428-11.987 6.949-18.858 10.568-6.857 3.621-12.759 6.573-17.705 8.86-4.962 2.284-8.384 3.428-10.289 3.428-6.857 0-12.193-3.052-16-9.145l-30.848-55.432c-34.657 6.473-68.952 9.715-102.857 9.715-102.477 0-196.951-25.911-283.432-77.719-86.475-51.816-158.852-122.477-217.144-212-7.622-11.819-11.43-24.962-11.43-39.439 0-14.473 3.809-27.622 11.43-39.425 33.52-52.184 73.237-98.864 119.143-140 45.905-41.152 96.092-74.090 150.568-98.864-16.762-28.567-25.142-45.145-25.142-49.72 0-6.855 3.050-12.185 9.147-15.992 46.472-26.677 71.992-39.999 76.568-39.999 6.849 0 12.187 3.060 15.996 9.157l28 50.849c40.383 71.986 100.569 179.993 180.576 323.992 80.002 144.003 140.002 251.813 180.003 323.434zM317.143 233.701c-99.044 44.57-180.383 115.995-243.996 214.282 57.904 89.907 130.475 157.15 217.713 201.713-23.237-39.613-34.859-82.472-34.859-128.568 0-40.76 9.329-79.418 28-115.995 18.668-36.575 44.572-66.849 77.717-90.85l-44.574-80.583zM531.437 647.999c-5.328-5.338-11.821-8.004-19.438-8.004-32.76 0-60.766-11.624-84.003-34.857-23.243-23.247-34.857-51.243-34.857-84.003 0-7.628-2.674-14.098-8.004-19.434-5.34-5.338-11.813-8.004-19.428-8.004-7.624 0-14.1 2.67-19.434 8.004-5.338 5.336-8.004 11.815-8.004 19.434 0 47.615 17.052 88.476 51.143 122.573 34.093 34.093 74.949 51.143 122.571 51.143 7.618 0 14.096-2.674 19.44-8.004 5.328-5.332 7.998-11.811 7.998-19.428 0.002-7.622-2.668-14.098-7.984-19.42zM1012.57 487.428c-21.722 36.186-49.242 71.24-82.57 105.145-33.316 33.903-68.094 63.038-104.286 87.424l-36-64.001c63.616-43.808 117.335-99.813 161.137-168-46.082-71.616-103.521-130.095-172.265-175.424-68.766-45.355-143.529-71.438-224.293-78.287l-42.289-75.431c84.576 0 164.48 18.089 239.713 54.282 75.235 36.178 141.439 87.039 198.577 152.561 26.663 30.864 47.425 58.481 62.287 82.862 7.618 12.961 11.424 26.111 11.424 39.433-0.006 13.332-3.813 26.475-11.434 39.437z" />
<glyph unicode="&#xe606;" glyph-name="uniE606" data-tags="uniE605" d="M343.881 48.080h112.080v-112.080h-112.080v112.080zM343.881 274.786h112.080v-112.080h-112.080v112.080zM343.881 504.040h112.080v-112.080h-112.080v112.080zM343.881 730.746h112.080v-112.080h-112.080v112.080zM343.881 960h112.080v-112.080h-112.080v112.080zM568.040 48.080h112.080v-112.080h-112.080v112.080zM568.040 274.786h112.080v-112.080h-112.080v112.080zM568.040 504.040h112.080v-112.080h-112.080v112.080zM568.040 730.746h112.080v-112.080h-112.080v112.080zM568.040 960h112.080v-112.080h-112.080v112.080z" />
<glyph unicode="&#xe607;" glyph-name="uniE607" data-tags="uniE607" d="M448.227 352.078l166.547 95.922-166.547 95.922zM512 960c-282.727 0-512-229.273-512-512s229.273-512 512-512 512 229.273 512 512-229.273 512-512 512zM831.922 447.477s0-103.836-13.172-153.906c-7.383-27.406-28.992-49.016-56.398-56.391-50.070-13.18-250.352-13.18-250.352-13.18s-199.758 0-250.352 13.703c-27.406 7.375-49.016 28.992-56.398 56.398-13.18 49.539-13.18 153.898-13.18 153.898s0 103.828 13.18 153.898c7.375 27.406 29.516 49.547 56.398 56.922 50.070 13.18 250.352 13.18 250.352 13.18s200.281 0 250.352-13.703c27.406-7.375 49.016-28.992 56.398-56.398 13.703-50.070 13.172-154.422 13.172-154.422z" />
<glyph unicode="&#xe900;" glyph-name="iconmonstr-shopping-cart-3" data-tags="iconmonstr-shopping-cart-3" d="M597.333 128c0-35.371 28.672-64 64-64s64 28.629 64 64c0 35.328-28.672 64-64 64s-64-28.672-64-64zM448 192c35.328 0 64-28.629 64-64s-28.672-64-64-64-64 28.629-64 64c0 35.328 28.672 64 64 64zM390.997 405.333l-84.352 298.667h717.355l-125.355-298.667h-507.648zM178.987 832l146.432-512h537.472l-35.797-85.333h-564.864l-148.224 512h-82.304l-31.701 85.333h178.987z" />
<glyph unicode="&#xe901;" glyph-name="location-arrow" data-tags="location-arrow" horiz-adv-x="805" d="M800.571 751.428l-365.714-731.429c-6.286-12.571-18.857-20-32.571-20-2.857 0-5.714 0.571-8.571 1.143-16.571 4-28 18.286-28 35.429v329.143h-329.143c-17.143 0-31.429 11.429-35.429 28s4 33.714 18.857 41.143l731.429 365.714c5.143 2.857 10.857 4 16.571 4 9.714 0 18.857-3.429 25.714-10.857 11.429-10.857 14.286-28 6.857-42.286z" />
<glyph unicode="&#xe9b3;" glyph-name="target" data-tags="target, goal, location, spot" d="M1024 512h-100.924c-27.64 178.24-168.836 319.436-347.076 347.076v100.924h-128v-100.924c-178.24-27.64-319.436-168.836-347.076-347.076h-100.924v-128h100.924c27.64-178.24 168.836-319.436 347.076-347.076v-100.924h128v100.924c178.24 27.64 319.436 168.836 347.076 347.076h100.924v128zM792.822 512h-99.762c-19.284 54.55-62.51 97.778-117.060 117.060v99.762c107.514-24.49 192.332-109.31 216.822-216.822zM512 384c-35.346 0-64 28.654-64 64s28.654 64 64 64c35.346 0 64-28.654 64-64s-28.654-64-64-64zM448 728.822v-99.762c-54.55-19.282-97.778-62.51-117.060-117.060h-99.762c24.49 107.512 109.31 192.332 216.822 216.822zM231.178 384h99.762c19.282-54.55 62.51-97.778 117.060-117.060v-99.762c-107.512 24.49-192.332 109.308-216.822 216.822zM576 167.178v99.762c54.55 19.284 97.778 62.51 117.060 117.060h99.762c-24.49-107.514-109.308-192.332-216.822-216.822z" />
</font>
</defs>
</svg>
